Нетобзор - форум про интернет

Пожалуйста, войдите или зарегистрируйтесь.


Расширенный поиск  

Автор Тема: lifebox от Lifecell уменьшает видеофайлы Codec ID: mp42 (iso/mp42)  (Прочитано 760 раз)

0 Пользователей и 1 Гость просматривают эту тему.

2228428Автор темы

  • Частенько тут
  • ***
  • Благодарность: +2/-0
  • Оффлайн Оффлайн
  • Сообщений: 211
  • Город: Kiev

Lifecell предлагает всем воспользоваться облачным хранилищем lifebox,
Примечательно, что трафик в сети Lifecell - не тарифицируется.
Итак, можно разгрузить смартфон и при этом отправить ссылку на скачивание или просмотр кому либо, не используя платный трафик в пакете. Также можно посмотреть ссылку от другого, даже если на балансе СИМ Lifecell карты 0 грн. в сети покрытия Lifecell.
Но вопрос в следующем - после загрузки файла видео отснятом телефоном Андроид в lifebox, обнаруживается уменьшение в 5 - 6 раз.
Потеря качества - не наблюдаю, аппаратная часть не позволяет, но вот разные кодеки и разные данные о видиофайле...
Кто - то может пояснить : есть ли потери качества видио или какой еще подвох  в изменение кодировка и других характеристик?
Ниже приводятся данные до и после обработки в lifebox
Также приклеплю два файла для удобства.
Данные до lifebox как снял телефон:
General
Complete name               : D:\AAA Видео редактировать 2020\VID_20210526_154120.mp4
Format                      : MPEG-4
Format profile              : Base Media / Version 2
Codec ID                    : mp42 (isom/mp42)
File size                   : 112 MiB
Duration                    : 55 s 595 ms
Overall bit rate            : 16.9 Mb/s
Encoded date                : UTC 2021-05-26 12:42:21
Tagged date                 : UTC 2021-05-26 12:42:21
com.android.version         : 9

Video
ID                          : 1
Format                      : AVC
Format/Info                 : Advanced Video Codec
Format profile              : High@L4.1
Format settings             : CABAC / 1 Ref Frames
Format settings, CABAC      : Yes
Format settings, Reference  : 1 frame
Format settings, GOP        : M=1, N=30
Codec ID                    : avc1
Codec ID/Info               : Advanced Video Coding
Duration                    : 54 s 765 ms
Bit rate                    : 17.0 Mb/s
Width                       : 1 920 pixels
Height                      : 1 080 pixels
Display aspect ratio        : 16:9
Rotation                    : 90°
Frame rate mode             : Variable
Frame rate                  : 29.836 FPS
Minimum frame rate          : 14.965 FPS
Maximum frame rate          : 29.930 FPS
Color space                 : YUV
Chroma subsampling          : 4:2:0
Bit depth                   : 8 bits
Scan type                   : Progressive
Bits/(Pixel*Frame)          : 0.274
Stream size                 : 111 MiB (99%)
Title                       : VideoHandle
Language                    : English
Encoded date                : UTC 2021-05-26 12:42:21
Tagged date                 : UTC 2021-05-26 12:42:21
Color range                 : Limited
Color primaries             : BT.709
colour_primaries_Original   : BT.601 PAL
Transfer characteristics    : BT.709
Matrix coefficients         : BT.709
mdhd_Duration               : 54765
Codec configuration box     : avcC

Audio
ID                          : 2
Format                      : AAC LC
Format/Info                 : Advanced Audio Codec Low Complexity
Codec ID                    : mp4a-40-2
Duration                    : 55 s 595 ms
Bit rate mode               : Constant
Bit rate                    : 128 kb/s
Channel(s)                  : 1 channel
Channel layout              : C
Sampling rate               : 48.0 kHz
Frame rate                  : 46.875 FPS (1024 SPF)
Compression mode            : Lossy
Stream size                 : 869 KiB (1%)
Title                       : SoundHandle
Language                    : English
Encoded date                : UTC 2021-05-26 12:42:21
Tagged date                 : UTC 2021-05-26 12:42:21


Данные после обработки в Лайфбокс:
General
Complete name               : C:\Users\Admin\Downloads\VID_20210526_154120.mp4
Format                      : MPEG-4
Format profile              : Base Media
Codec ID                    : isom (isom/iso2/avc1/mp41)
File size                   : 18.5 MiB
Duration                    : 55 s 595 ms
Overall bit rate            : 2 795 kb/s
Writing application         : lb-0.0.2

Video
ID                          : 1
Format                      : AVC
Format/Info                 : Advanced Video Codec
Format profile              : High@L4
Format settings             : CABAC / 4 Ref Frames
Format settings, CABAC      : Yes
Format settings, Reference  : 4 frames
Codec ID                    : avc1
Codec ID/Info               : Advanced Video Coding
Duration                    : 54 s 786 ms
Bit rate                    : 2 698 kb/s
Width                       : 720 pixels
Height                      : 1 280 pixels
Display aspect ratio        : 0.563
Frame rate mode             : Variable
Frame rate                  : 29.825 FPS
Minimum frame rate          : 14.958 FPS
Maximum frame rate          : 29.917 FPS
Color space                 : YUV
Chroma subsampling          : 4:2:0
Bit depth                   : 8 bits
Scan type                   : Progressive
Bits/(Pixel*Frame)          : 0.098
Stream size                 : 17.6 MiB (95%)
Writing library             : x264 core 155
Encoding settings           : cabac=1 / ref=3 / deblock=1:0:0 / analyse=0x3:0x113 / me=hex / subme=7 / psy=1 / psy_rd=1.00:0.00 / mixed_ref=1 / me_range=16 / chroma_me=1 / trellis=1 / 8x8dct=1 / cqm=0 / deadzone=21,11 / fast_pskip=1 / chroma_qp_offset=-2 / threads=40 / lookahead_threads=6 / sliced_threads=0 / nr=0 / decimate=1 / interlaced=0 / bluray_compat=0 / constrained_intra=0 / bframes=3 / b_pyramid=2 / b_adapt=1 / b_bias=0 / direct=1 / weightb=1 / open_gop=0 / weightp=2 / keyint=250 / keyint_min=25 / scenecut=40 / intra_refresh=0 / rc_lookahead=40 / rc=crf / mbtree=1 / crf=23.0 / qcomp=0.60 / qpmin=0 / qpmax=69 / qpstep=4 / vbv_maxrate=3109 / vbv_bufsize=4289 / crf_max=0.0 / nal_hrd=none / filler=0 / ip_ratio=1.40 / aq=1:1.00
Language                    : English
Codec configuration box     : avcC

Audio
ID                          : 2
Format                      : AAC LC
Format/Info                 : Advanced Audio Codec Low Complexity
Codec ID                    : mp4a-40-2
Duration                    : 55 s 595 ms
Bit rate mode               : Constant
Bit rate                    : 128 kb/s
Channel(s)                  : 1 channel
Channel layout              : C
Sampling rate               : 48.0 kHz
Frame rate                  : 46.875 FPS (1024 SPF)
Compression mode            : Lossy
Stream size                 : 869 KiB (5%)
Language                    : English
Default                     : Yes
Alternate group             : 1

Записан

Петрo

  • Живу я здесь)))
  • *****
  • Благодарность: +116/-0
  • Оффлайн Оффлайн
  • Сообщений: 808
  • Город: Бучач.Тернопільська обл.
  • Модем: MikroTik
  • Провайдер: Gipernet
  • Тариф: Новий Опт. 30Мб/с

Глибоко не вникав, але навіть тут видно, що якість втрачається:
Данные до lifebox как снял телефон:
Bit rate                    : 17.0 Mb/s
Width                       : 1 920 pixels
Height                      : 1 080 pixels
Данные после обработки в Лайфбокс:
Bit rate                    : 2 698 kb/s
Width                       : 720 pixels
Height                      : 1 280 pixels

2228428Автор темы

  • Частенько тут
  • ***
  • Благодарность: +2/-0
  • Оффлайн Оффлайн
  • Сообщений: 211
  • Город: Kiev

Вот пример ПО Format Factory - в этом случае тоже размер (МБ) файла уменьшился,
при соблюдении размера Width                       
: 1 920 pixels : 1 080 pixels
Какое визуальное отличие от исходника или только изменение иные?

General
Complete name               : D:\AAA Видео редактировать 2020\Коза_FF_154120.mp4
Format                      : MPEG-4
Format profile              : Base Media
Codec ID                    : isom (isom/iso2/avc1/mp41)
File size                   : 35.0 MiB
Duration                    : 55 s 618 ms
Overall bit rate            : 5 280 kb/s
Writing application         : Lavf58.29.100

Video
ID                          : 1
Format                      : AVC
Format/Info                 : Advanced Video Codec
Format profile              : High@L4
Format settings             : CABAC / 4 Ref Frames
Format settings, CABAC      : Yes
Format settings, Reference  : 4 frames
Codec ID                    : avc1
Codec ID/Info               : Advanced Video Coding
Duration                    : 54 s 834 ms
Bit rate                    : 5 210 kb/s
Width                       : 1 920 pixels
Height                      : 1 080 pixels
Display aspect ratio        : 0.562
Original display aspect rat : 0.563
Frame rate mode             : Constant
Frame rate                  : 29.836 FPS
Color space                 : YUV
Chroma subsampling          : 4:2:0
Bit depth                   : 8 bits
Scan type                   : Progressive
Bits/(Pixel*Frame)          : 0.084
Stream size                 : 34.1 MiB (97%)
Title                       : VideoHandle
Writing library             : x264 core 148
Encoding settings           : cabac=1 / ref=3 / deblock=1:0:0 / analyse=0x3:0x113 / me=hex / subme=7 / psy=1 / psy_rd=1.00:0.00 / mixed_ref=1 / me_range=16 / chroma_me=1 / trellis=1 / 8x8dct=1 / cqm=0 / deadzone=21,11 / fast_pskip=1 / chroma_qp_offset=-2 / threads=6 / lookahead_threads=1 / sliced_threads=0 / nr=0 / decimate=1 / interlaced=0 / bluray_compat=0 / constrained_intra=0 / bframes=3 / b_pyramid=2 / b_adapt=1 / b_bias=0 / direct=1 / weightb=1 / open_gop=0 / weightp=2 / keyint=250 / keyint_min=25 / scenecut=40 / intra_refresh=0 / rc_lookahead=40 / rc=abr / mbtree=1 / bitrate=5210 / ratetol=1.0 / qcomp=0.60 / qpmin=0 / qpmax=69 / qpstep=4 / ip_ratio=1.40 / aq=1:1.00
Language                    : English
Codec configuration box     : avcC

Audio
ID                          : 2
Format                      : AAC LC
Format/Info                 : Advanced Audio Codec Low Complexity
Codec ID                    : mp4a-40-2
Duration                    : 55 s 618 ms
Duration_LastFrame          : -17 ms
Bit rate mode               : Constant
Bit rate                    : 132 kb/s
Channel(s)                  : 2 channels
Channel layout              : L R
Sampling rate               : 44.1 kHz
Frame rate                  : 43.066 FPS (1024 SPF)
Compression mode            : Lossy
Stream size                 : 890 KiB (2%)
Title                       : SoundHandle
Language                    : English
Default                     : Yes
Alternate group             : 1

Записан